<?xml version="1.0" standalone="no"?>
<!DOCTYPE svg PUBLIC "-//W3C//DTD SVG 1.1//EN" "http://www.w3.org/Graphics/SVG/1.1/DTD/svg11.dtd" >
<svg xmlns="http://www.w3.org/2000/svg">
<metadata>Generated by IcoMoon</metadata>
<defs>
<font id="icomoon" horiz-adv-x="1024">
<font-face units-per-em="1024" ascent="960" descent="-64" />
<missing-glyph horiz-adv-x="1024" />
<glyph unicode="&#x20;" horiz-adv-x="512" d="" />
<glyph unicode="&#xe900;" glyph-name="angle-up" horiz-adv-x="768" d="M704 256c-16.376 0-32.76 6.25-45.24 18.75l-274.76 274.65-274.8-274.8c-25-25-65.5-25-90.5 0s-25 65.5 0 90.5l320 320c25 25 65.5 25 90.5 0l320-320c25-25 25-65.5 0-90.5-12.4-12.4-28.8-18.6-45.2-18.6z" />
<glyph unicode="&#xe901;" glyph-name="angle-down" horiz-adv-x="768" d="M384 192c-16.376 0-32.76 6.25-45.24 18.75l-320 320c-25 25-25 65.5 0 90.5s65.5 25 90.5 0l274.74-274.85 274.8 274.8c25 25 65.5 25 90.5 0s25-65.5 0-90.5l-320-320c-12.5-12.5-28.9-18.7-45.3-18.7z" />
<glyph unicode="&#xe902;" glyph-name="bold-cross" d="M1024 705.112l-255.498 254.888-258.733-258.108-254.268 253.658-255.501-254.887 254.269-253.658-252.274-251.67 255.502-254.886 252.272 251.667 256.736-256.115 255.498 254.886-256.73 256.118 258.726 258.108z" />
<glyph unicode="&#xe903;" glyph-name="sharp-star" d="M512 621.683l177.815 338.317-81.232-373.477 353.663 144.859-302.273-233.872 364.027-116.38-381.876 15.153 204.061-323.162-282.795 257.090-51.39-378.734-51.39 378.734-282.794-257.090 204.061 323.162-381.876-15.153 364.027 116.38-302.272 233.876 353.663-144.863-81.232 373.477 177.815-338.317z" />
<glyph unicode="&#xe904;" glyph-name="return" horiz-adv-x="1229" d="M844.8 690.894h-662.095l204.247 202.706-68.208 66.4-318.693-316.286 318.696-316.284 68.208 66.4-204.245 202.704h662.090c158.802 0 288.003-126.992 288.003-283.085s-129.201-283.082-288.003-283.082h-844.8v-94.365h844.8c211.736 0 384 169.322 384 377.447s-172.264 377.447-384 377.447z" />
<glyph unicode="&#xe905;" glyph-name="caret-down-solid" horiz-adv-x="640" d="M621.2 466.8l-254.2-256c-14.2-12.6-30.6-18.8-47-18.8s-32.76 6.25-45.26 18.75l-254.2 256c-20.091 18.25-25.572 45.85-15.664 69.65s33.264 39.6 59.124 39.6h510.2c25.88 0 49.24-15.562 59.16-39.5s6.24-51.5-12.16-69.7z" />
<glyph unicode="&#xe907;" glyph-name="arrow-right" d="M1005.2 402.8l-256-256c-25.020-25.020-65.52-24.98-90.5 0-25 25-25 65.5 0 90.5l146.9 146.7h-741.6c-35.38 0-64 28.6-64 65.8s28.62 62.2 64 62.2h741.6l-146.76 146.76c-25 25-25 65.5 0 90.5s65.5 25 90.5 0l256-256c24.86-25.060 24.86-65.46-0.14-90.46z" />
<glyph unicode="&#xe908;" glyph-name="rectangle-star" d="M638.041-64l-126.041 263.126-126.041-263.126-146.871 60.835 96.931 275.183-275.183-96.934-60.836 146.876 263.126 126.041-263.126 126.041 60.836 146.873 275.183-96.931-96.931 275.183 146.871 60.835 126.041-263.126 126.041 263.126 146.876-60.835-96.934-275.183 275.183 96.931 60.835-146.873-263.126-126.041 263.126-126.041-60.835-146.876-275.183 96.934 96.934-275.183-146.876-60.835z" />
<glyph unicode="&#xe909;" glyph-name="sticky" d="M944 55.999c0-22.056-17.943-39.999-39.999-39.999h-784.001c-22.056 0-40 17.943-40 39.999v784.001c0 22.056 17.944 40 40 40h351.999v80h-351.999c-66.168 0-120-53.832-120-120v-784.001c0-66.167 53.832-119.999 120-119.999h784.001c66.167 0 119.999 53.832 119.999 119.999v352h-80v-352zM611.575 960v-82.49h271.632l-663.752-663.752 58.329-58.328 663.752 663.752v-271.632h82.49v412.451h-412.451z" />
<glyph unicode="&#xe90a;" glyph-name="instagram" horiz-adv-x="970" d="M471.579 559.579c-63.158 0-113.684-50.526-113.684-111.579 0-63.159 50.526-113.686 113.684-113.686 61.052 0 111.578 50.526 111.578 113.686 0 61.052-50.526 111.579-111.578 111.579zM732.634 645.895c-10.531 29.473-33.684 52.631-63.159 63.158-44.21 18.947-149.475 14.737-197.896 14.737-50.526 0-155.789 4.21-200-14.737-29.473-10.526-52.631-33.684-63.158-63.158-16.842-44.211-14.737-149.474-14.737-197.895 0-50.526-2.105-155.788 14.737-199.998 10.526-29.475 33.684-52.634 63.158-63.159 44.211-18.949 149.474-14.735 200-14.735 48.421 0 153.686-4.215 197.896 14.735 29.475 10.526 52.628 33.684 63.159 63.159 18.944 44.21 14.735 149.472 14.735 199.998 0 48.421 4.209 153.684-14.735 197.895zM471.579 275.37c-96.842 0-172.631 75.787-172.631 172.63 0 94.737 75.789 172.631 172.631 172.631 94.736 0 172.63-77.895 172.63-172.631v-2.105c0-94.738-77.894-172.632-172.63-172.632v2.107zM650.526 586.947c-23.159 0-40.001 16.842-40.001 40s16.842 40 40.001 40c21.051 0 40.001-16.842 40.001-40s-18.949-40-40.001-40zM842.105 919.579h-741.053c-56.842 0-101.053-46.316-101.053-101.053v-741.053c0-56.843 44.21-101.053 101.053-101.053h741.053c54.735 0 101.053 44.21 101.053 101.053v741.053c0 54.737-46.317 101.053-101.053 101.053zM804.212 309.054c-2.107-54.741-14.74-103.16-52.634-141.053-40.001-40.001-88.42-52.634-141.053-54.735-56.843-4.215-223.157-4.215-277.893 0-54.737 2.102-103.158 14.735-141.053 54.735-40 37.893-52.632 86.312-54.737 141.053-4.21 54.735-4.21 221.051 0 277.893 2.105 52.632 14.737 101.053 54.737 141.053 37.894 37.895 86.316 50.526 141.053 52.632 54.737 4.21 221.050 4.21 277.893 0 52.634-2.106 101.053-14.737 141.053-54.737 37.893-37.895 50.526-86.316 52.634-141.053 4.209-54.737 4.209-221.052 0-275.788z" />
<glyph unicode="&#xe90b;" glyph-name="tiktok" horiz-adv-x="878" d="M853.333 535.619v165.714c-1.907 0-1.907 0-1.907 0-45.714 0-89.522 13.333-125.713 38.095-53.331 34.286-91.429 89.524-102.858 152.381-3.808 13.333-3.808 26.667-3.808 40 0 1.905 0 1.905 0 3.81h-167.619v-666.668c0-78.092-64.762-142.858-142.857-142.858s-142.857 64.766-142.857 142.858c0 78.097 64.762 142.858 142.857 142.858 15.238 0 28.572-1.902 43.81-7.617v171.427c-15.238 1.905-28.572 3.809-43.81 3.809-171.428 0-308.571-139.045-308.571-310.477 0-171.427 137.143-308.57 308.571-308.57s310.476 137.143 310.476 308.57v340.953c64.761-47.619 144.764-74.285 232.38-74.285h1.907z" />
<glyph unicode="&#xe90c;" glyph-name="search" d="M983.067 81.865l-186.668 186.668c-9.332 7.468-20.535 13.066-31.73 13.066h-29.867c50.401 65.333 82.132 147.467 82.132 238.933 0 212.8-175.467 388.267-388.267 388.267-214.667 0-388.267-175.466-388.267-388.267 0-214.667 173.6-388.267 388.267-388.267 89.6 0 171.733 29.867 238.933 82.132v-31.73c0-11.203 3.733-22.398 13.066-31.737l184.798-184.798c18.671-18.664 46.667-18.664 63.468 0l52.265 52.265c18.671 16.8 18.671 44.803 1.871 63.468zM428.667 281.6c-132.534 0-238.933 106.4-238.933 238.933 0 130.666 106.4 238.933 238.933 238.933 130.666 0 238.933-108.267 238.933-238.933 0-132.534-108.267-238.933-238.933-238.933z" />
<glyph unicode="&#xe90d;" glyph-name="arrow-left" d="M18.75 493.2l256 256c25 25 65.5 25 90.5 0s25-65.5 0-90.5l-146.65-146.7h741.4c35.38 0 64-28.62 64-64s-28.62-64-64-64h-741.4l146.76-146.76c25-25 25-65.5 0-90.5-24.98-24.98-65.48-25.020-90.5 0l-256 256c-25.11 25.060-25.11 65.46-0.11 90.46z" />
<glyph unicode="&#xe90e;" glyph-name="star" d="M458.461 887.385l-119.999-245.538-271.385-38.769c-48-7.385-66.461-66.462-31.385-101.538l193.846-190.154-46.154-267.691c-7.384-48.002 44.308-84.921 86.77-62.771l241.846 127.386 240-127.386c42.458-22.15 94.154 14.769 86.766 62.771l-46.151 267.691 193.843 190.154c35.084 35.077 16.62 94.154-31.382 101.538l-269.539 38.769-121.846 245.538c-20.307 42.462-83.077 44.308-105.231 0z" />
<glyph unicode="&#xe90f;" glyph-name="star-o" d="M955.077 603.077l-269.539 38.769-121.846 245.538c-20.307 42.462-83.077 44.308-105.231 0l-119.999-245.538-271.385-38.769c-48-7.385-66.461-66.462-31.385-101.538l193.846-190.154-46.154-267.691c-7.384-48.002 44.308-84.921 86.77-62.771l241.846 127.386 240-127.386c42.458-22.15 94.154 14.769 86.766 62.771l-46.151 267.691 193.843 190.154c35.084 35.077 16.62 94.154-31.382 101.538zM696.615 342.769l44.308-254.768-228.923 119.999-230.769-119.999 44.308 254.768-186.462 180.923 256.616 36.923 116.307 232.615 114.461-232.615 256.613-36.923-186.459-180.923z" />
<glyph unicode="&#xe910;" glyph-name="user" horiz-adv-x="896" d="M448 448c140 0 256 114 256 256 0 140-116 256-256 256-142 0-256-116-256-256 0-142 114-256 256-256zM626 384h-34c-44-22-92-32-144-32s-102 10-146 32h-34c-148 0-268-121.997-268-270.003v-81.997c0-54.003 42-96 96-96h704c52 0 96 41.997 96 96v81.997c0 148.006-121.997 270.003-270 270.003z" />
<glyph unicode="&#xe911;" glyph-name="grid" horiz-adv-x="1103" d="M320.923 859.077c0 28-23.692 51.692-51.692 51.692h-217.539c-30.154 0-51.692-23.692-51.692-51.692v-172.308c0-30.154 21.539-51.692 51.692-51.692h217.539c28 0 51.692 21.539 51.692 51.692v172.308zM710.769 342.154v172.308c0 28-23.692 51.692-51.692 51.692h-217.539c-28 0-51.692-23.692-51.692-51.692v-172.308c0-30.154 23.692-51.692 51.692-51.692h217.539c28 0 51.692 21.539 51.692 51.692zM779.693 859.077v-172.308c0-30.154 23.691-51.692 51.693-51.692h219.695c27.995 0 51.688 21.539 51.688 51.692v172.308c0 28-23.694 51.692-51.688 51.692h-219.695c-28.002 0-51.693-23.692-51.693-51.692zM710.769 686.769v172.308c0 28-23.692 51.692-51.692 51.692h-217.539c-28 0-51.692-23.692-51.692-51.692v-172.308c0-30.154 23.692-51.692 51.692-51.692h217.539c28 0 51.692 21.539 51.692 51.692zM269.231 566.154h-217.539c-30.154 0-51.692-23.692-51.692-51.692v-172.308c0-30.154 21.539-51.692 51.692-51.692h217.539c28 0 51.692 21.539 51.692 51.692v172.308c0 28-23.692 51.692-51.692 51.692zM0 169.85v-172.316c0-30.153 21.539-51.688 51.692-51.688h217.539c28 0 51.692 21.536 51.692 51.688v172.316c0 27.996-23.692 51.688-51.692 51.688h-217.539c-30.154 0-51.692-23.692-51.692-51.688zM831.386 290.462h219.695c27.995 0 51.688 21.539 51.688 51.692v172.308c0 28-23.694 51.692-51.688 51.692h-219.695c-28.002 0-51.693-23.692-51.693-51.692v-172.308c0-30.154 23.691-51.692 51.693-51.692zM831.386-54.154h219.695c27.995 0 51.688 21.536 51.688 51.688v172.316c0 27.996-23.694 51.688-51.688 51.688h-219.695c-28.002 0-51.693-23.692-51.693-51.688v-172.316c0-30.153 23.691-51.688 51.693-51.688zM389.846 169.85v-172.316c0-30.153 23.692-51.688 51.692-51.688h217.539c28 0 51.692 21.536 51.692 51.688v172.316c0 27.996-23.692 51.688-51.692 51.688h-217.539c-28 0-51.692-23.692-51.692-51.688z" />
<glyph unicode="&#xe912;" glyph-name="check" horiz-adv-x="1434" d="M517.6 31.95c23.999-23.999 64.8-23.999 88.8 0l705.599 705.601c24.003 23.999 24.003 64.8 0 88.799l-86.395 86.4c-24.003 24-62.403 24-86.405 0l-576-576-271.2 268.8c-23.999 24.001-62.399 24.001-86.4 0l-86.4-86.4c-24-23.999-24-64.8 0-88.799l398.401-398.401z" />
<glyph unicode="&#xe913;" glyph-name="close" d="M665.777 448l288 285.333c16.001 16.001 16.001 45.334 0 61.334l-66.666 66.666c-16.001 16-45.334 16-61.334 0l-285.333-288-288 288c-16.001 16-45.334 16-61.333 0l-66.667-66.666c-16-16.001-16-45.334 0-61.334l288-285.333-288-288c-16-16.001-16-45.334 0-61.333l66.667-66.667c15.999-16.001 45.332-16.001 61.333 0l288 288 285.333-288c16.001-16.001 45.334-16.001 61.334 0l66.666 66.667c16.001 15.999 16.001 45.332 0 61.333l-288 288z" />
<glyph unicode="&#xe914;" glyph-name="list" horiz-adv-x="1195" d="M186.667 954.667h-149.333c-21 0-37.333-18.667-37.333-37.333v-149.333c0-21 16.333-37.333 37.333-37.333h149.333c18.667 0 37.333 16.334 37.333 37.333v149.333c0 18.667-18.667 37.333-37.333 37.333zM186.667 581.333h-149.333c-21 0-37.333-18.667-37.333-37.333v-149.333c0-21 16.333-37.333 37.333-37.333h149.333c18.667 0 37.333 16.334 37.333 37.333v149.333c0 18.667-18.667 37.333-37.333 37.333zM186.667 208h-149.333c-21 0-37.333-18.667-37.333-37.333v-149.333c0-21.001 16.333-37.333 37.333-37.333h149.333c18.667 0 37.333 16.333 37.333 37.333v149.333c0 18.667-18.667 37.333-37.333 37.333zM1157.333 525.333h-746.667c-21 0-37.333-18.667-37.333-37.333v-37.333c0-21 16.334-37.333 37.333-37.333h746.667c18.662 0 37.333 16.334 37.333 37.333v37.333c0 18.667-18.671 37.333-37.333 37.333zM1157.333 152h-746.667c-21 0-37.333-18.667-37.333-37.333v-37.338c0-20.992 16.334-37.325 37.333-37.325h746.667c18.662 0 37.333 16.333 37.333 37.325v37.338c0 18.667-18.671 37.333-37.333 37.333zM1157.333 898.667h-746.667c-21 0-37.333-18.667-37.333-37.333v-37.333c0-21 16.334-37.333 37.333-37.333h746.667c18.662 0 37.333 16.334 37.333 37.333v37.333c0 18.667-18.671 37.333-37.333 37.333z" />
<glyph unicode="&#xe915;" glyph-name="play" horiz-adv-x="838" d="M770.909 545.818l-640 378.182c-52.727 30.909-130.909 0-130.909-74.545v-756.364c0-69.092 72.727-110.909 130.909-76.362l640 378.182c56.362 34.546 56.362 116.363 0 150.908z" />
<glyph unicode="&#xe916;" glyph-name="angle-left" horiz-adv-x="593" d="M31.158 481.684c-18.947-18.947-18.947-50.526 0-69.476l408.421-410.522c21.053-18.949 52.631-18.949 71.579 0l48.42 48.419c18.949 18.949 18.949 50.526 0 71.578l-324.21 326.316 324.21 324.21c18.949 21.053 18.949 52.632 0 71.579l-48.42 48.421c-18.948 18.947-50.526 18.947-71.579 0l-408.421-410.526z" />
<glyph unicode="&#xe917;" glyph-name="angle-right" horiz-adv-x="593" d="M559.578 412.209c18.949 18.949 18.949 50.528 0 69.476l-408.42 410.526c-21.053 18.947-52.632 18.947-71.579 0l-48.421-48.421c-18.947-18.947-18.947-50.526 0-71.579l324.211-324.21-324.211-326.316c-18.947-21.051-18.947-52.628 0-71.578l48.421-48.419c18.947-18.949 50.526-18.949 71.579 0l408.42 410.522z" />
<glyph unicode="&#xe918;" glyph-name="faq" d="M512 893.867c-255.733 0-462.933-209.067-462.933-462.933 0-255.734 207.2-462.93 462.933-462.93 253.87 0 462.93 207.196 462.93 462.93 0 253.867-209.060 462.933-462.93 462.933zM512 57.597c-207.2 0-373.333 166.134-373.333 373.337 0 205.333 166.133 373.333 373.333 373.333 205.332 0 373.337-168 373.337-373.333 0-207.203-168.004-373.337-373.337-373.337zM711.735 533.6c0 93.333-98.935 166.133-190.401 166.133-87.734 0-143.733-37.334-186.667-102.667-7.466-9.333-5.6-22.4 3.734-29.867l52.267-39.199c9.333-7.467 24.266-5.601 31.733 3.733 28 35.467 48.534 56.001 91.466 56.001 33.6 0 74.667-20.534 74.667-54.133 0-24.267-20.533-35.467-54.133-54.133-37.333-22.4-87.733-48.534-87.733-115.734v-14.933c0-13.067 9.333-22.4 22.4-22.4h84c13.067 0 22.4 9.333 22.4 22.4v11.2c0 46.666 136.268 48.534 136.268 173.6zM590.4 221.867c0 42.933-35.467 78.4-78.4 78.4-44.8 0-78.4-35.467-78.4-78.4 0-44.803 33.6-78.397 78.4-78.397 42.934 0 78.4 33.594 78.4 78.397z" />
<glyph unicode="&#xe919;" glyph-name="reply" d="M1006 554.4l-352 304c-30 26-78 4-78-38v-160c-322-2-576-68-576-372 0-122 78-244.001 166-308.001 26-20 66 6.001 56.001 38.001-90 290 41.999 366 354 370v-174c0-42 48-64 78-38l352 304c22.004 20 22.004 54 0 73.999z" />
<glyph unicode="&#xe91a;" glyph-name="facebook" horiz-adv-x="970" d="M842.105 919.579h-741.053c-56.842 0-101.053-46.316-101.053-101.053v-741.053c0-56.843 44.21-101.053 101.053-101.053h288.421v320h-132.632v151.579h132.632v113.684c0 130.526 77.895 204.21 195.791 204.21 58.945 0 117.895-10.527 117.895-10.527v-128.421h-65.267c-65.261 0-86.312-40-86.312-82.105v-96.842h145.262l-23.159-151.579h-122.104v-320h290.525c54.735 0 101.053 44.21 101.053 101.053v741.053c0 54.737-46.317 101.053-101.053 101.053z" />
<glyph unicode="&#xe91b;" glyph-name="quote" horiz-adv-x="1147" d="M1039.36 949.76h-286.72c-60.482 0-107.52-49.28-107.52-107.52v-286.72c0-60.482 47.038-107.52 107.52-107.52h179.2v-143.36c0-80.642-64.958-143.36-143.36-143.36h-17.92c-31.359 0-53.76-24.642-53.76-53.76v-107.52c0-31.359 22.401-53.76 53.76-53.76h17.92c197.12 0 358.4 159.039 358.4 358.4v537.6c0 58.24-49.279 107.52-107.52 107.52zM394.24 949.76h-286.72c-60.48 0-107.52-49.28-107.52-107.52v-286.72c0-60.482 47.040-107.52 107.52-107.52h179.2v-143.36c0-80.642-64.96-143.36-143.36-143.36h-17.92c-31.36 0-53.76-24.642-53.76-53.76v-107.52c0-31.359 22.4-53.76 53.76-53.76h17.92c197.12 0 358.4 159.039 358.4 358.4v537.6c0 58.24-49.279 107.52-107.52 107.52z" />
<glyph unicode="&#xe91c;" glyph-name="circle" horiz-adv-x="878" d="M438.857 836.571c-234.857 0-425.143-190.286-425.143-425.143s190.286-425.143 425.143-425.143c234.857 0 425.143 190.286 425.143 425.143s-190.286 425.143-425.143 425.143z" />
<glyph unicode="&#xe91d;" glyph-name="youtube" horiz-adv-x="1502" d="M1463.999 797.334c-16.002 64-66.662 114.666-128 130.666-114.668 32-567.999 32-567.999 32s-456 0-570.667-32c-61.333-16-112-66.666-128-130.666-32-112-32-352-32-352s0-237.332 32-351.999c16-64 66.667-111.998 128-128 114.667-29.334 570.667-29.334 570.667-29.334s453.332 0 567.999 29.334c61.338 16.002 111.998 64 128 128 32.003 114.668 32.003 351.999 32.003 351.999s0 240-32.003 352zM618.667 229.335v431.998l378.668-216-378.668-215.998z" />
<glyph unicode="&#xe91e;" glyph-name="share" horiz-adv-x="922" d="M704 294.4c-46 0-88.001-16-120.001-42l-205.999 128c4 12 4 26 4 42 0 14 0 28-4 39.999l205.999 128c32-25.999 74-39.999 120.001-39.999 106 0 192 84 192 192 0 106-86 192-192 192-108 0-192-86-192-192 0-16 0-30 4-42l-206-128c-32 26-73.999 42-118 42-108 0-192-86-192-192 0-108 84-192 192-192 44 0 86 14 118 39.999l206-128c-4-11.999-4-25.999-4-41.999v2c0-108 84-192 192-192 106 0 192 84 192 192 0 106-86 192-192 192z" />
<glyph unicode="&#xe91f;" glyph-name="bag" horiz-adv-x="896" d="M704 640v64c0 140-116 256-256 256-142 0-256-116-256-256v-64h-192v-544c0-89.997 70-160 160-160h576c88 0 160 70.003 160 160v544h-192zM320 704c0 70 56 128 128 128 70 0 128-58 128-128v-64h-256v64zM640 464c-28 0-48 20-48 48 0 26 20 48 48 48 25.997 0 48-22 48-48 0-28-22.003-48-48-48zM256 464c-28 0-48 20-48 48 0 26 20 48 48 48 26 0 48-22 48-48 0-28-22-48-48-48z" />
<glyph unicode="&#xe920;" glyph-name="location" horiz-adv-x="751" d="M338.133-28.269c16.8-26.132 56.001-26.132 72.8 0 272.532 392.002 322.933 433.069 322.933 578.669 0 197.867-160.533 358.4-358.4 358.4-199.733 0-358.4-160.533-358.4-358.4 0-145.6 48.533-186.667 321.066-578.669zM375.467 401.067c-84 0-149.333 65.333-149.333 149.333 0 82.133 65.333 149.333 149.333 149.333 82.133 0 149.333-67.2 149.333-149.333 0-84-67.2-149.333-149.333-149.333z" />
<glyph unicode="&#xe921;" glyph-name="package" horiz-adv-x="1229" d="M952.532 658.667l-63.468 188.533c-11.196 35.467-44.797 61.6-83.995 61.6h-588.002c-39.2 0-72.8-26.133-84-61.6l-95.2-283.733c-3.733-9.333-3.733-18.667-3.733-28v-492.8c0-50.401 39.2-89.6 89.6-89.6h746.667c197.864 0 358.4 160.536 358.4 358.4 0 168-117.603 309.866-276.268 347.2zM556.8 819.2h248.269l50.394-151.2c-93.327-3.734-177.33-42.934-238.93-102.667h-59.733v253.867zM217.067 819.2h250.133v-253.867h-334.133l84 253.867zM123.733 42.667v433.067h427.467c-26.133-50.4-39.2-106.4-39.2-164.267 0-108.264 46.666-203.469 121.333-268.8h-509.6zM870.4 42.667c-149.333 0-268.8 119.467-268.8 268.8 0 147.467 119.467 268.8 268.8 268.8 147.47 0 268.8-121.333 268.8-268.8 0-149.333-121.33-268.8-268.8-268.8zM989.867 425.333c-5.598 5.6-14.937 5.6-20.535 0l-130.662-128.8-56.006 57.867c-5.598 5.6-14.93 5.6-20.528 0l-35.471-35.467c-5.598-5.601-5.598-14.934 0-20.534l100.803-102.666c5.598-5.598 14.93-5.598 20.535 0l177.329 173.599c5.605 5.6 5.605 14.933 0 22.4l-35.465 33.6z" />
<glyph unicode="&#xe922;" glyph-name="delivery" horiz-adv-x="1229" d="M1198.933 221.867h-29.867v216.534c0 35.467-14.937 69.066-41.069 95.2l-154.931 154.933c-26.132 26.133-59.733 41.066-95.198 41.066h-67.202v74.667c0 56-48.531 104.533-104.53 104.533h-448.003c-57.867 0-104.533-48.534-104.533-104.533v-74.667h-104.533c-9.333 0-14.933-7.467-14.933-14.933v-29.867c0-9.333 5.6-14.933 14.933-14.933h448c7.466 0 14.933 5.6 14.933 14.933v29.867c0 7.466-7.467 14.933-14.933 14.933h-253.867v74.667c0 7.466 5.6 14.933 14.933 14.933h448.003c7.462 0 14.93-7.467 14.93-14.933v-582.4h-235.2c-29.867 52.265-87.734 89.6-153.067 89.6-33.6 0-63.467-11.2-89.6-26.133v85.866h-89.6v-238.933c0-98.932 80.267-179.2 179.2-179.2s179.2 80.268 179.2 179.2h238.933c0-98.932 80.268-179.2 179.2-179.2s179.2 80.268 179.2 179.2h89.6c14.93 0 29.867 13.066 29.867 29.867v29.867c0 14.937-14.937 29.867-29.867 29.867zM332.8 42.667c-50.4 0-89.6 39.199-89.6 89.6 0 48.531 39.2 89.6 89.6 89.6 48.534 0 89.6-41.069 89.6-89.6 0-50.401-41.066-89.6-89.6-89.6zM810.667 640h67.202c11.196 0 22.398-5.6 31.73-13.067l136.267-136.266h-235.199v149.333zM930.133 42.667c-50.401 0-89.6 39.199-89.6 89.6 0 48.531 39.199 89.6 89.6 89.6 48.531 0 89.6-41.069 89.6-89.6 0-50.401-41.069-89.6-89.6-89.6zM1079.467 229.335c-33.601 48.531-87.736 82.132-149.333 82.132-46.667 0-87.736-18.667-119.467-46.667v136.267h268.8v-171.732zM512 445.867v29.867c0 7.466-7.467 14.933-14.933 14.933h-448c-9.333 0-14.933-7.467-14.933-14.933v-29.867c0-9.333 5.6-14.933 14.933-14.933h448c7.466 0 14.933 5.6 14.933 14.933zM556.8 550.4c7.466 0 14.933 5.6 14.933 14.933v29.867c0 7.466-7.467 14.933-14.933 14.933h-448c-9.333 0-14.933-7.467-14.933-14.933v-29.867c0-9.333 5.6-14.933 14.933-14.933h448z" />
<glyph unicode="&#xe923;" glyph-name="stats" horiz-adv-x="1109" d="M421.333 480h-74.667c-11.667 0-18.667-9.334-18.667-18.667v-485.329c0-11.674 7-18.671 18.667-18.671h74.667c9.334 0 18.667 6.997 18.667 18.671v485.329c0 9.333-9.333 18.667-18.667 18.667zM122.667 256h-74.667c-11.667 0-18.667-9.334-18.667-18.667v-261.329c0-11.674 7-18.671 18.667-18.671h74.667c9.334 0 18.667 6.997 18.667 18.671v261.329c0 9.333-9.333 18.667-18.667 18.667zM720 704h-74.667c-11.667 0-18.667-9.334-18.667-18.667v-709.329c0-11.674 7-18.671 18.667-18.671h74.667c9.334 0 18.667 6.997 18.667 18.671v709.329c0 9.333-9.333 18.667-18.667 18.667zM1018.667 928h-74.667c-11.665 0-18.662-9.333-18.662-18.667v-933.329c0-11.674 6.997-18.671 18.662-18.671h74.667c9.335 0 18.662 6.997 18.662 18.671v933.329c0 9.333-9.327 18.667-18.662 18.667z" />
<glyph unicode="&#xe924;" glyph-name="heart" d="M0 578.2v11.6c0 139.8 101.040 259.040 238.8 282 89.4 15.18 184-14.54 249.2-79.84l24-23.96 22.2 23.96c67 65.3 159.8 95.020 251 79.84 137.8-22.96 238.8-142.2 238.8-282v-11.6c0-83-34.4-162.4-95.2-219l-361.4-337.4c-15-14-34.8-21.8-55.4-21.8s-40.4 7.8-55.4 21.8l-361.42 337.4c-60.72 56.6-95.179 136-95.179 219h-0.001z" />
<glyph unicode="&#xe925;" glyph-name="heart-o" d="M488 792l22.2-24 24 23.96c67 65.3 159.8 95.020 251 79.84 137.8-22.96 238.8-142.2 238.8-282v-11.6c0-83-34.4-162.4-95.2-219l-361.4-337.4c-15-14-34.8-21.8-55.4-21.8s-40.4 7.8-55.4 21.8l-361.42 337.4c-60.72 56.6-95.18 136-95.18 219v11.6c0 139.8 101.040 259.040 238.8 282 89.4 15.18 184-14.54 249.2-79.8-1.8 0 0-0.020 0 0v0zM510.2 632.2l-90 93.6c-43.4 41.64-105 61.4-165.6 51.32-91.5-15.26-158.6-94.52-158.6-187.32v-11.6c0-56.4 23.42-110.4 64.68-148.8l351.32-328 351.4 328c41.2 38.4 64.6 92.4 64.6 148.8v11.6c0 92.8-67.2 172.060-158.6 187.32-60.6 10.080-122.2-9.68-165.6-51.32l-93.6-93.6z" />
<glyph unicode="&#xe926;" glyph-name="caret-down" horiz-adv-x="585" d="M585.143 548.571c0-9.714-4-18.857-10.857-25.714l-256-256c-6.857-6.857-16-10.857-25.714-10.857s-18.857 4-25.714 10.857l-256 256c-6.857 6.857-10.857 16-10.857 25.714 0 20 16.571 36.571 36.571 36.571h512c20 0 36.571-16.571 36.571-36.571z" />
<glyph unicode="&#xe927;" glyph-name="filters" horiz-adv-x="3444" d="M1210.182 215.273h2234.182v-186.182h-2234.182v186.182zM0 215.273h837.818v-186.182h-837.818v186.182zM930.909 308.364h186.182v-372.364h-186.182v372.364zM0 773.818h2234.182v-186.182h-2234.182v186.182zM2606.545 773.818h837.818v-186.182h-837.818v186.182zM2327.273 866.909h186.182v-372.364h-186.182v372.364z" />
<glyph unicode="&#xe928;" glyph-name="plus" horiz-adv-x="896" d="M864 448c0-26.6-21.4-48-48-48h-320v-320c0-26.5-21.5-48.020-48-48.020s-48 21.42-48 48.020v320h-320c-26.5 0-48 21.48-48 47.98 0 26.42 21.5 48.020 48 48.020h320v320c0 26.5 21.5 47.98 48 47.98s48-21.48 48-47.98v-320h320c26.6 0 48-21.6 48-48z" />
<glyph unicode="&#xe929;" glyph-name="minus" horiz-adv-x="896" d="M864 448c0-26.6-21.4-48-48-48h-736c-26.5 0-48 21.48-48 47.98 0 26.42 21.5 48.020 48 48.020h736c26.6 0 48-21.6 48-48z" />
<glyph unicode="&#xe92a;" glyph-name="to-top" horiz-adv-x="847" d="M582.621 41.931c-35.31 0-112.981 12.353-158.897 35.31-35.31 17.655-88.276 88.276-88.276 123.586 0 105.931 0 89.601 0 123.586v406.069l105.931-105.931 84.235 75.029-259.123 260.419-259.123-260.419 80.908-75.029 105.931 105.931v-406.069c0-70.621 9.593-195.739 35.31-247.172 35.31-70.621 88.276-105.931 141.241-123.586s70.621-17.655 211.862-17.655h264.828v105.931c-129.471 0-217.747 0-264.828 0z" />
</font>
</defs>
</svg>
